-
 KDE-Apps.org Applications for the KDE-Desktop 
 GTK-Apps.org Applications using the GTK Toolkit 
 GnomeFiles.org Applications for GNOME 
 MeeGo-Central.org Applications for MeeGo 
 CLI-Apps.org Command Line Applications 
 Qt-Apps.org Free Qt Applications 
 Qt-Prop.org Proprietary Qt Applications 
 Maemo-Apps.org Applications for the Maemo Plattform 
 Java-Apps.org Free Java Applications 
 eyeOS-Apps.org Free eyeOS Applications 
 Wine-Apps.org Wine Applications 
 Server-Apps.org Server Applications 
 apps.ownCloud.com ownCloud Applications 
--
-
 KDE-Look.org Artwork for the KDE-Desktop 
 GNOME-Look.org Artwork for the GNOME-Desktop 
 Xfce-Look.org Artwork for the Xfce-Desktop 
 Box-Look.org Artwork for your Windowmanager 
 E17-Stuff.org Artwork for Enlightenment 
 Beryl-Themes.org Artwork for the Beryl Windowmanager 
 Compiz-Themes.org Artwork for the Compiz Windowmanager 
 EDE-Look.org Themes for your EDE Desktop 
--
-
 Debian-Art.org Stuff for Debian 
 Gentoo-Art.org Artwork for Gentoo Linux 
 SUSE-Art.org Artwork for openSUSE 
 Ubuntu-Art.org Artwork for Ubuntu 
 Kubuntu-Art.org Artwork for Kubuntu 
 LinuxMint-Art.org Artwork for Linux Mint 
 Arch-Stuff.org Art And Stuff for Arch Linux 
 Frugalware-Art.org Themes for Frugalware 
 Fedora-Art.org Artwork for Fedora Linux 
 Mandriva-Art.org Artwork for Mandriva Linux 
--
-
 KDE-Files.org Files for KDE Applications 
 OpenTemplate.org Documents for OpenOffice.org
 GIMPStuff.org Files for GIMP
 InkscapeStuff.org Files for Inkscape
 ScribusStuff.org Files for Scribus
 BlenderStuff.org Textures and Objects for Blender
 VLC-Addons.org Themes and Extensions for VLC
--
-
 KDE-Help.org Support for your KDE Desktop 
 GNOME-Help.org Support for your GNOME Desktop 
 Xfce-Help.org Support for your Xfce Desktop 
--
openDesktop.orgopenDesktop.org:   Applications   Artwork   Linux Distributions   Documents    LinuxDaily.com    Linux42.org    OpenSkillz.com   
 
Apps
News
Groups
Knowledge
Events
Forum
People
Jobs
Register
Login


Sponsoring


-
- Content .- Fans (1) .- Knowledge Base  . 

qt webcam viewer - V4lCapture

   1  

Qt Graphic Tool

Score 58%
qt webcam viewer - V4lCapture
zoom


Depends on  Qt 4.x
Downloads:  1870
Submitted:  Jun 20 2010
Updated:  Jul 17 2010

Description:

qt webcam viewer for linux. it takes v4l data/image frames and show them in the qwidget. you need to modify the code for make it work in your machine. for width and height parts check the code please.

this project lives in sourceforge now please check it out.
http://qtv4lcapture.sourceforge.net

if you got any idea feel free to contact me.




Changelog:

initial release




LicenseLGPL
Source(V4lCapture)
Send to a friend
Subscribe
Other  Apps  from opakdil
Report inappropriate content



-

 client killed error

 
 by kalac on: Jun 21 2010
 
Score 50%
kalackalac
ComTrade
-
Asmer Mlaco 3

ComTrade
Bosnia-Herzegovina, Sarajevo
Last visit Apr 11 2014
1 Friends
0 Groups

More info
Send a message
Add as friend
Other contents
--

it is a kernel bug, I have it too. Whem that happens, all usb devices stops working until reboot.


Reply to this

-

 Re: client killed error

 
 by opakdil on: Jun 21 2010
 
Score 50%

thanks for the feedback.

its not a suprise to me. sometime my all usb devices just dies and I start pulling and plugging them till they get better :) and that situation does not related to my app. when my app gaves that error it just dissapperas.


Reply to this

-

 Possible bug

 
 by michaelwouters on: Jul 13 2010
 
Score 50%

Thank you for your posting your code. It
was a very quick way to get video capture going for me.

There seems to be a bug though. Your demo crashes very quickly if you just move the window around or resize it.

The problem seems to be calling update() on your display widget from within the capture thread. This is not allowed, AFAIK. The mandelbrot example that comes with Qt might be a better model for doing updates - the captured image is passed via a signal. Crashes in my own code stopped when I reimplemented updates this way.


Reply to this

-

 Re: Possible bug

 
 by opakdil on: Jul 17 2010
 
Score 50%

thanks for the feedback. I check the mandelbrot and reimplement mycode same way. it looks pretier :) anyway and open a new open source project for this matter. and you can reach the project via here

http://sourceforge.net/projects/qtv4lcapture/

or here

http://qtv4lcapture.sourceforge.net/

it does not crashes anymore but somehow I break the libv4l part I am not sure about it :) it can save videos anyway:)


Reply to this

-
.

 codec not found

 
 by tetsujin28 on: Oct 22 2010
 
Score 50%

I try to compile today (2010.10.22) SVN version. When I pressed [Start Capture] button here's what I've got:

dev: /dev/video0
Output #0, mp4, to './denemel.mp4':
Stream #0.0: Video: mpeg4, yuv420p, 640x480, q=2-31, 10000 kb/s, 90k tbn, 24tbc
heheheh
pOutputFormat->audio_codec: 86018
ses stream opened
codec not found

Any idea what's wrong ?
Thanks


Reply to this

-

 Re: codec not found

 
 by opakdil on: Oct 22 2010
 
Score 50%

sound like you dont have codec to write mp4 file. but I am not sure you may disable volume and try it again.


Reply to this

-
.

 Re- New Problem

 
 by Frienddy on: Dec 11 2011
 
Score 50%

Thank you for the post.
but, now i have a problem with Qt and openCV.
we usually put the openCV.show in the main.cpp, so when we run the program, the webcam will active as soon as possible. but in my program, i want show the webcam after another widget show.
for example, first i have widget for login, after i successfully login, next widget will show the webcam. how is it?
what shoul i do?
thank you for the attention.


Reply to this

-
.

 New Problem

 
 by Frienddy on: Dec 11 2011
 
Score 50%

Thank you for the post.
but, now i have a problem with Qt and openCV.
we usually put the openCV.show in the main.cpp, so when we run the program, the webcam will active as soon as possible. but in my program, i want show the webcam after another widget show.
for example, first i have widget for login, after i successfully login, next widget will show the webcam. how is it?
what shoul i do?
thank you for the attention.


Reply to this

-

 Re: New Problem

 
 by opakdil on: Dec 11 2011
 
Score 63%

I guess best solution is to move the code from main.cpp to the next form which should open webcam.


Reply to this

-

 Re: Re: New Problem

 
 by Frienddy on: Dec 11 2011
 
Score 63%

now i can start it, but the problems now, what should i do to take the capture image for the video?
and i want to move the webcam form display, to another form.


Reply to this

-

 Building and run on Ubuntu x64

 
 by freelyP on: Jan 6 2012
 
Score 50%

Hi.
Nice application.
Trying to build and test in on Ubuntu 64 bit at my place , ( libv4l installed )
got the following ( both building from Qt Creator and using build.sh ):

state= 0
start oluo
dev: /dev/video0
Output #0, mp4, to './deneme1.mp4':
Stream #0.0: Video: mpeg4, yuv420p, 640x480, q=2-31, 10000 kb/s, 90k tbn, 24 tbc
heheheh
pOutputFormat->audio_codec: 86018
ses stream opened.
codec not found

Also when volume muted ( muted all ) and when middle level. ( then passes states 0 , 2 , 0

Why can't find codec ?


Reply to this

Add commentBack






-
Cool Sites
QtitanDataGrid Advanced Grid for Qt

 
 
 Who we are
Contact
More about us
Frequently Asked Questions
Register
Twitter
Blog
Explore
Apps
Jobs
Knowledge
Events
People
Updates on identi.ca
Updates on Twitter
Facebook App
Content RSS   
Events RSS   

Participate
Groups
Forum
Add App
Public API
About Qt-Apps.org
Legal Notice
Spreadshirt Shop
CafePress Shop
Advertising
Sponsor us
Report Abuse
 

Copyright 2006-2014 Qt-Apps.org Team  
All rights reserved. Qt-Apps.org is not liable for any content or goods on this site.
All contributors are responsible for the lawfulness of their uploads.
Qt is a trademarks of Nokia